..:Forum Bac Hong secondary school:..

..:We are best friends forever:..
 
Trang ChínhTrang Chính  PortalPortal  CalendarCalendar  Trợ giúpTrợ giúp  Tìm kiếmTìm kiếm  Thành viênThành viên  NhómNhóm  Đăng kýĐăng ký  Đăng Nhập  
Poll
HoT BoY contest - 9G class (refreshed)
Việt An
7%
 7% [ 8 ]
Thái Hà
15%
 15% [ 17 ]
Hữu Thắng
11%
 11% [ 13 ]
Xuân Bách
10%
 10% [ 11 ]
Lê Công
12%
 12% [ 14 ]
Đình Thành
4%
 4% [ 5 ]
Đức An
4%
 4% [ 4 ]
Quốc Anh
4%
 4% [ 4 ]
Thái Cường
4%
 4% [ 4 ]
Trường Sơn
4%
 4% [ 4 ]
Công Thắng
6%
 6% [ 7 ]
Văn Thắng
4%
 4% [ 4 ]
Quang Tuấn
4%
 4% [ 4 ]
Hồng Nguyên
6%
 6% [ 7 ]
Anh Dũng
7%
 7% [ 8 ]
Tổng số bầu chọn : 114
..:Chat box:..
..:Hỗ trợ trực tuyến:.
Admin
..:News:..
Đăng Nhập
Tên truy cập:
Mật khẩu:
Đăng nhập tự động mỗi khi truy cập: 
:: Quên mật khẩu
Latest topics
» SỬA MÁY TÍNH , MÁY IN, ĐỔ MỰC MÁY IN TẠI NHÀ HỒ CHÍ MINH
Thu Mar 01, 2012 3:47 pm by tuquynh

» vietpon mua sản phẩm chất lượng, giá tốt.
Fri Oct 07, 2011 10:03 am by tuquynh

» Học tiếng Nhật - Top Globis
Fri Oct 07, 2011 9:46 am by tuquynh

» Học tiếng Nhật - Top Globis
Mon Sep 05, 2011 3:35 pm by tuquynh

» best fish oil liquid
Thu Aug 04, 2011 5:16 am by Khách viếng thăm

» Caffeine Vs Mt Coffee Dew
Wed Aug 03, 2011 8:00 pm by Khách viếng thăm

» What this in an email called?
Wed Aug 03, 2011 4:43 am by Khách viếng thăm

» benefits of fish oil in children
Tue Aug 02, 2011 12:32 pm by Khách viếng thăm

» life of luxury video slot
Tue Aug 02, 2011 10:37 am by Khách viếng thăm

» acetaminophen diphenhydramine
Tue Aug 02, 2011 9:46 am by Khách viếng thăm

Top posters
xuanbach (429)
 
dongchul lee (259)
 
♥MAEKY♥ (253)
 
kimlong_nhi (210)
 
phạm thị thảo ngân (190)
 
minholee_007_thiensu (118)
 
ViPro (117)
 
sleepingbeauty2416 (98)
 
thiensukhatmau_dianguc21 (89)
 
langtuonline39 (87)
 
..:Page view:..
Thống Kê
Hiện có 1 người đang truy cập Diễn Đàn, gồm: 0 Thành viên, 0 Thành viên ẩn danh và 1 Khách viếng thăm

Không

Số người truy cập cùng lúc nhiều nhất là 37 người, vào ngày Sun Feb 27, 2011 8:19 pm

Share | 
 

 2012 (2009) DVDRip XviD-MAXSPEED

Xem chủ đề cũ hơn Xem chủ đề mới hơn Go down 
Tác giảThông điệp
dongchul lee
Super Moderator
Super Moderator
avatar

Uy tín : Uy tín cao
Yahoo! Yahoo! : Đang cập nhật (hãy thay đổi tài khoản Yahoo của chính bạn - admin)....
Nam Xiền : 3755
Tổng số bài gửi : 259
Join date : 16/10/2009
Đến từ : KOREA

Bài gửiTiêu đề: 2012 (2009) DVDRip XviD-MAXSPEED   Sat Dec 26, 2009 10:47 am

2012 (2009) DVDRip XviD-MAXSPEED



[You must be registered and logged in to see this image.]Click this bar to view the full image.
[You must be
registered and logged in to see this image.]

Screens:

[You must be registered and logged in to see this image.]Click this bar to view the full image.
[You must be
registered and logged in to see this image.]

[You must be registered and logged in to see this image.]Click this bar to view the full image.
[You must be
registered and logged in to see this image.]

[You must be registered and logged in to see this image.]Click this bar to view the full image.
[You must be
registered and logged in to see this image.]

[You must be registered and logged in to see this image.]Click this bar to view the full image.
[You must be
registered and logged in to see this image.]


[You must be registered and logged in to see this image.]Click this bar to view the full image.
[You must be
registered and logged in to see this image.]

Code:
Alternative

Screens:
[You must be registered and logged in to see this link.]
[You must be registered and logged in to see this link.]
[You must be registered and logged in to see this link.]
[You must be registered and logged in to see this link.]
ScreenCaps:

[You must be registered and logged in to see this link.]
Code:
Format : AVI
Format/Info : Audio Video Interleave
File size : 1.37 GiB
Duration : 2h 31mn
Overall bit rate : 1 293 Kbps
Writing application : VirtualDubMod 1.5.10.2 (build 2542/release)
Writing library : VirtualDubMod build 2542/release
Original source form : MAX TORRENTZ
Copyright : SIGISMUNT

Video
ID : 0
Format : MPEG-4 Visual
Format profile : AdvancedSimple@L5
Format settings, BVOP : Yes
Format settings, QPel : No
Format settings, GMC : No warppoints
Format settings, Matrix : Default (H.263)
Codec ID : XVID
Codec ID/Hint : XviD
Duration : 2h 31mn
Bit rate : 1 163 Kbps
Width : 640 pixels
Height : 272 pixels
Display aspect ratio : 2.35:1
Frame rate : 25.000 fps
Resolution : 24 bits
Colorimetry : 4:2:0
Scan type : Progressive
Bits/(Pixel*Frame) : 0.267
Stream size : 1.23 GiB (90%)
Writing library : XviD 1.2.1 (UTC 2008-12-04)

Audio
ID : 1
Format : MPEG Audio
Format version : Version 1
Format profile : Layer 3
Codec ID : 55
Codec ID/Hint : MP3
Duration : 2h 31mn
Bit rate mode : Variable
Bit rate : 117 Kbps
Channel(s) : 2 channels
Sampling rate : 48.0 KHz
Resolution : 16 bits
Stream size : 127 MiB (9%)
Alignment : Aligned on interleaves
Interleave, duration : 24 ms (0.60 video frame)
Interleave, preload duration : 163 ms
Download:
from RapidShare
Code:
[You must be registered and logged in to see this link.]
[You must be registered and logged in to see this link.]
[You must be registered and logged in to see this link.]
[You must be registered and logged in to see this link.]
[You must be registered and logged in to see this link.]
[You must be registered and logged in to see this link.]
[You must be registered and logged in to see this link.]
[You must be registered and logged in to see this link.]
[You must be registered and logged in to see this link.]
[You must be registered and logged in to see this link.]
[You must be registered and logged in to see this link.]
[You must be registered and logged in to see this link.]
[You must be registered and logged in to see this link.]
[You must be registered and logged in to see this link.]
from Hotfile
Code:
[You must be registered and logged in to see this link.]
[You must be registered and logged in to see this link.]
[You must be registered and logged in to see this link.]
[You must be registered and logged in to see this link.]
[You must be registered and logged in to see this link.]
[You must be registered and logged in to see this link.]
[You must be registered and logged in to see this link.]
[You must be registered and logged in to see this link.]
[You must be registered and logged in to see this link.]
[You must be registered and logged in to see this link.]
[You must be registered and logged in to see this link.]
[You must be registered and logged in to see this link.]
[You must be registered and logged in to see this link.]
[You must be registered and logged in to see this link.]
Về Đầu Trang Go down
Xem lý lịch thành viên
 
2012 (2009) DVDRip XviD-MAXSPEED
Xem chủ đề cũ hơn Xem chủ đề mới hơn Về Đầu Trang 
Trang 1 trong tổng số 1 trang
 Similar topics
-
» *Ninja Assassin 2009 DVDrip link Mediafire *
» Bodyguards And Assassins–Thập Nguyệt Vi Thành 2009 DVDrip
» [18+]The Miss March [2009|Hài hước]-DVDRip
» MF-Hiss DVDrip - Nữ Thần Rắn VietSub
» Bedtime Stories (2008) DVDRIP [mediafire-rapidshare-megaupload]

Permissions in this forum:Bạn không có quyền trả lời bài viết
..:Forum Bac Hong secondary school:.. :: Cinema - Movie :: ..:New movie - new film:..-
Chuyển đến